BDRemux Owarimonogatari


Category: Anime - Raw
Uploaded by:
Website Link: N/A
Hash: 4B06274CF1CB8F38F9B17D402170095F2004C299
Size: 78.7 GiB
Date: 7/25/2017, 11:45:00 PM UTC+0
Seeders: 2
Leechers: 1
Completed: 8
Last scraped: 7/14/2019, 0:00:44 AM UTC+0

Description

Video ID: 1 Format: AVC Format/Info: Advanced Video Codec Format profile: [email protected] Format settings, CABAC: Yes Format settings, RefFrames: 4 frames Codec ID: V_MPEG4/ISO/AVC Duration: 27 min 12 s Bit rate mode: Variable Bit rate: 34.7 Mb/s Maximum bit rate: 39.0 Mb/s Width: 1 920 pixels Height: 1 080 pixels Display aspect ratio: 16:9 Frame rate mode: Constant Frame rate: 23.976 (240001001) FPS Color space: YUV Chroma subsampling: 4:2:0 Bit depth: 8 bits Scan type: Progressive Bits/(Pixel*Frame): 0.699 Stream size: 6.60 GiB (94%) Default: No Forced: No

Audio ID: 2 Format: PCM Codec ID: A_PCM/INT/LIT Duration: 27 min 12 s Bit rate mode: Constant Bit rate: 2 304 kb/s Channel(s): 2 channels Sampling rate: 48.0 kHz Frame rate: 32.000 FPS (1500 SPF) Bit depth: 24 bits Stream size: 448 MiB (6%) Default: Yes Forced: No

Menu 00:00:00.000: en:00:00:00.000 00:02:02.998: en:00:02:02.998 00:03:33.004: en:00:03:33.004 00:03:36.007: en:00:03:36.007 00:05:38.547: en:00:05:38.547 00:06:38.732: en:00:06:38.732 00:08:46.192: en:00:08:46.192 00:17:47.024: en:00:17:47.024 00:18:40.161: en:00:18:40.161 00:20:04.787: en:00:20:04.787 00:21:56.357: en:00:21:56.357 00:23:05.801: en:00:23:05.801 00:23:49.887: en:00:23:49.887 00:25:40.038: en:00:25:40.038
Scraped From: https://nyaa.si/view/942345

Comments

No user comments have been posted.