Hatsune Miku Live Performance at B.I.G. Carnival in Shanghai, China


Category: Live Action - Raw
Uploaded by: れんちょん
Website Link: N/A
Hash: A4B088EF84FE62E4C2967F3DD49740F18DF2AAB2
Size: 891.2 MiB
Date: 4/22/2017, 1:23:00 PM UTC+0
Seeders: 2
Leechers: 1
Completed: 6
Last scraped: 7/12/2019, 11:47:48 PM UTC+0

Description

Image


Hatsune Miku Live Performance at B.I.G. Carnival "Banana.IP.Galaxy" in Shanghai, China
01. ワールドイズマイン / World is Mine - ryo(supercell) feat. Hatsune Miku
02. ラズベリー*モンスター / Raspberry*Monster - HoneyWorks feat. Hatsune Miku
03. 裏表ラバーズ / Two-Faced Lovers - wowaka feat. Hatsune Miku
04. からくりピエロ / Karakuri Pierrot - 40mP feat. Hatsune Miku
05. Satisfaction - kz feat. Hatsune Miku
06. 39(サンキュー) / 39 (San-Kyuu) - sasakure.UK & DECO*27 feat. Hatsune Miku
07. 歌に形はないけれど / Uta ni Katachi wa Nai Keredo - doriko feat. Hatsune Miku [V4 CH]
08. Tell Your World - kz(livetune) feat. Hatsune Miku



Format : Matroska
Format version : Version 4 / Version 2
File size : 891 MiB
Duration : 36 min 45 s
Overall bit rate : 3 390 kb/s
Writing application : mkvmerge v11.0.0 ('Alive') 64bit
Writing library : libebml v1.3.4 + libmatroska v1.4.5

Video
ID : 1
Format : AVC
Format/Info : Advanced Video Codec
Format profile : [email protected]
Format settings, CABAC : Yes
Format settings, ReFrames : 4 frames
Codec ID : V_MPEG4/ISO/AVC
Duration : 36 min 45 s
Bit rate : 3 225 kb/s
Width : 1 920 pixels
Height : 1 080 pixels
Display aspect ratio : 16:9
Frame rate mode : Variable
Frame rate : 30.000 FPS
Color space : YUV
Chroma subsampling : 4:2:0
Bit depth : 8 bits
Scan type : Progressive
Bits/(Pixel*Frame) : 0.052
Stream size : 848 MiB (95%)
Default : Yes
Forced : No

Audio
ID : 2
Format : AAC
Format/Info : Advanced Audio Codec
Format profile : LC
Codec ID : A_AAC
Duration : 36 min 45 s
Bit rate : 161 kb/s
Channel(s) : 2 channels
Channel positions : Front: L R
Sampling rate : 44.1 kHz
Frame rate : 43.066 FPS (1024 spf)
Compression mode : Lossy
Delay relative to video : -48 ms
Stream size : 42.4 MiB (5%)
Default : Yes
Forced : No

Comments

No user comments have been posted.