Monster Musume no Iru Nichijou OVA 1 720p WEB


Category: Anime - Raw
Uploaded by: れんちょん
Website Link: https://myanimelist.net/anime/32698/Monster_Musume_no_Iru_Nichijou_OVA
Hash: C7AE9F250AD634297192FCE739B4FBD09A6F9A05
Size: 200.1 MiB
Date: 11/13/2016, 10:15:00 AM UTC+0
Seeders: 1
Leechers: 0
Completed: 0
Last scraped: 10/18/2019, 0:10:44 AM UTC+0

Description

Media Info:

Iru Nichijou OVA 720p WEB.mp4
Format : MPEG-4
Format profile : Base Media
Codec ID : isom (isom)
File size : 200 MiB
Duration : 23mn 41s
Overall bit rate mode : Variable
Overall bit rate : 1 181 Kbps
Encoded date : UTC 2016-11-11 11:26:24
Tagged date : UTC 2016-11-11 11:26:24

Video
ID : 1
Format : AVC
Format/Info : Advanced Video Codec
Format profile : [email protected]
Format settings, CABAC : Yes
Format settings, ReFrames : 9 frames
Codec ID : avc1
Codec ID/Info : Advanced Video Coding
Duration : 23mn 41s
Bit rate mode : Variable
Bit rate : 1 050 Kbps
Maximum bit rate : 25.0 Mbps
Width : 1 280 pixels
Height : 720 pixels
Display aspect ratio : 16:9
Frame rate mode : Constant
Frame rate : 23.976 (23976/1000) fps
Standard : Component
Color space : YUV
Chroma subsampling : 4:2:0
Bit depth : 8 bits
Scan type : Progressive
Bits/(Pixel*Frame) : 0.048
Stream size : 178 MiB (89%)
Writing library : x264 core 144 r2525
Encoded date : UTC 2016-11-12 11:12:11
Tagged date : UTC 2016-11-11 11:26:25
Color range : Limited
Color primaries : BT.709
Transfer characteristics : BT.709
Matrix coefficients : BT.709

Audio
ID : 2
Format : AAC
Format/Info : Advanced Audio Codec
Format profile : LC
Codec ID : 40
Duration : 23mn 41s
Bit rate mode : Variable
Bit rate : 128 Kbps
Maximum bit rate : 149 Kbps
Channel(s) : 2 channels
Channel positions : Front: L R
Sampling rate : 48.0 KHz
Frame rate : 46.875 fps (1024 spf)
Compression mode : Lossy
Stream size : 21.6 MiB (11%)
Encoded date : UTC 2016-11-11 11:26:25
Tagged date : UTC 2016-11-11 11:26:25


Screenshots:

Image
Image
Image
Image
Image
Image


Notification: First test torrent, might be slow for the first few downloader.

Comments

1 11/13/2016, 2:44:00 PM UTC+0 fenson
Thank you.Hope this gets subbed soon.
2 11/14/2016, 0:13:00 AM UTC+0 APTXOldies2
thank you
3 11/14/2016, 6:13:00 AM UTC+0 unflun
Thanks.
4 11/15/2016, 8:19:00 AM UTC+0 IronWarrior
subs when