[Exiled-Destiny] Key The Metal Idol_AVC-DVD-Rip


Category: Anime - English-translated
Uploaded by: Xrust
Website Link: N/A
Hash: 85D8C61AA5424F40EDB9894AEAB1619FC9002F8C
Size: 7.0 GiB
Date: 4/2/2010, 6:42:00 AM UTC+0
Seeders: 1
Leechers: 2
Completed: 3
Last scraped: 7/5/2020, 7:58:05 AM UTC+0
NyaaPantsu Ads

Description



General
Complete name : E:\Аниме\[Exiled-Destiny] Key The Metal Idol_AVC-DVD-Rip\[Exiled-Destiny]_Key_The_Metal_Idol_Ep01_(1EA9618B).mkv
Format : Matroska
File size : 339 MiB
Duration : 25mn 0s
Overall bit rate : 1 895 Kbps
Encoded date : UTC 2008-05-20 20:42:28
Writing application : mkvmerge v2.0.0 ('After The Rain Has Fallen') built on Jan 13 2007 19:58:56
Writing library : libebml v0.7.7 + libmatroska v0.8.0

Video
ID : 1
Format : AVC
Format/Info : Advanced Video Codec
Format profile : High@L5.1
Format settings, CABAC : Yes
Format settings, ReFrames : 5 frames
Muxing mode : Container profile=Unknown@5.1
Codec ID : V_MPEG4/ISO/AVC
Duration : 24mn 59s
Bit rate : 1 474 Kbps
Nominal bit rate : 1 780 Kbps
Width : 640 pixels
Height : 480 pixels
Display aspect ratio : 4:3
Frame rate : 29.970 fps
Resolution : 24 bits
Colorimetry : 4:2:0
Scan type : Progressive
Bits/(Pixel*Frame) : 0.160
Stream size : 263 MiB (78%)
Writing library : x264 core 59 r851M e11ef38
Encoding settings : cabac=1 / ref=5 / deblock=1:-1:-1 / analyse=0x3:0x133 / me=umh / subme=7 / me-prepass=0 / brdo=1 / mixed_ref=1 / me_range=16 / chroma_me=1 / trellis=1 / 8x8dct=1 / cqm=0 / deadzone=21,11 / chroma_qp_offset=0 / threads=1 / nr=0 / decimate=0 / mbaff=0 / fgo=0 / bframes=1 / b_pyramid=0 / b_adapt=1 / b_bias=0 / direct=3 / wpredb=1 / bime=1 / keyint=250 / keyint_min=25 / scenecut=40 / rc=2pass / bitrate=1780 / ratetol=1.0 / rceq='blurCplx^(1-qComp)' / qcomp=1.00 / qpmin=10 / qpmax=51 / qpstep=4 / cplxblur=20.0 / qblur=0.5 / ip_ratio=1.40 / pb_ratio=1.30 / aq=2:1.00

Audio #1
ID : 2
Format : AC-3
Format/Info : Audio Coding 3
Format profile : Dolby Digital
Codec ID : A_AC3
Duration : 25mn 0s
Bit rate mode : Constant
Bit rate : 192 Kbps
Channel(s) : 2 channels
Channel positions : L R
Sampling rate : 48.0 KHz
Stream size : 34.3 MiB (10%)
Language : English

Audio #2
ID : 3
Format : AC-3
Format/Info : Audio Coding 3
Format profile : Dolby Digital
Codec ID : A_AC3
Duration : 25mn 0s
Bit rate mode : Constant
Bit rate : 192 Kbps
Channel(s) : 2 channels
Channel positions : L R
Sampling rate : 48.0 KHz
Stream size : 34.3 MiB (10%)
Language : Japanese

Text #1
ID : 4
Format : UTF-8
Codec ID : S_TEXT/UTF8
Codec ID/Info : UTF-8 Plain Text
Language : Japanese

Text #2
ID : 5
Format : VobSub
Codec ID : S_VOBSUB
Codec ID/Info : The same subtitle format used on DVDs
Language : Japanese

Comments

1 2/14/2012, 11:14:00 PM UTC+0 thane100
could someone seed this torrent? stuck at 57.1%
2 2/27/2012, 10:11:00 PM UTC+0 thetemplarreservist
I concur with Thane i am stuck at 83.7 along with about 10 other folks if anyone could seed i will keep it up for a month after.
3 12/31/2015, 10:02:00 AM UTC+0 ReDone-Subs
If the seeding dies out, this content can also be found here:

https://bakabt.me/torrent/142500/key-the-metal-idol-exiled-destiny