Pel·lícula - El detectiu Conan - El puny de safir blau [WEBDL 1080p] [CAT+SUB]


Category: Anime - Non-English-translated
Uploaded by: れんちょん
Website Link: N/A
Hash: f5325f576acc8d649b0a6c2317d13e84ac288e33
Size: 3.0 GiB
Torrent language: Catalan Catalan
Date: 10/12/2020, 3:53:31 PM UTC+0
Seeders: 1
Leechers: 0
Completed: 0
Last scraped: 10/24/2020, 5:46:08 PM UTC+0

Description

El puny de safir blau

alt text


Mediainfo

Video
ID : 1
Format : AVC
Format/Info : Advanced Video Codec
Format profile : High@L4
Format settings : CABAC / 4 Ref Frames
Format settings, CABAC : Yes
Format settings, Reference : 4 frames
Codec ID : V_MPEG4/ISO/AVC
Duration : 1 h 44 min
Bit rate mode : Constant
Bit rate : 4 000 kb/s
Width : 1 920 pixels
Height : 1 080 pixels
Display aspect ratio : 16:9
Frame rate mode : Constant
Frame rate : 25.000 FPS
Standard : PAL
Color space : YUV
Chroma subsampling : 4:2:0
Bit depth : 8 bits
Scan type : Progressive
Bits/(Pixel*Frame) : 0.077
Stream size : 2.88 GiB (97%)
Title : El detectiu Conan: El puny de safir blau
Default : Yes
Forced : No
Color range : Full
Color primaries : BT.709
Transfer characteristics : BT.709
Matrix coefficients : BT.709

Audio
ID : 2
Format : AAC LC
Format/Info : Advanced Audio Codec Low Complexity
Codec ID : A_AAC-2
Duration : 1 h 44 min
Bit rate : 125 kb/s
Channel(s) : 2 channels
Channel layout : L R
Sampling rate : 48.0 kHz
Frame rate : 46.875 FPS (1024 SPF)
Compression mode : Lossy
Stream size : 93.7 MiB (3%)
Title : Català
Language : Catalan
Default : Yes
Forced : No

Text
ID : 3
Format : UTF-8
Codec ID : S_TEXT/UTF8
Codec ID/Info : UTF-8 Plain Text
Duration : 1 h 44 min
Bit rate : 85 b/s
Count of elements : 1734
Stream size : 65.4 KiB (0%)
Title : Català
Language : Catalan
Default : No
Forced : No


DD per MEGA: 23 El detectiu Conan - El puny de safir blau [WEBDL 1080p] [CAT+SUB] [4B059BC2].mkv

Comments

No user comments have been posted.