Pel·lícula - El detectiu Conan: Quinze minuts de silenci [WEBDL 1080p] [CAT+SUB]


Category: Anime - Non-English-translated
Uploaded by: れんちょん
Website Link: N/A
Hash: a56ceebeb664bc4499f4e4e4420a2a7e49aeca95
Size: 2.9 GiB
Torrent language: Catalan Catalan
Date: 8/1/2020, 1:28:43 PM UTC+0
Seeders: 1
Leechers: 3
Completed: 3
Last scraped: 8/3/2020, 11:26:25 PM UTC+0
NyaaPantsu Ads

Description

Quinze minuts de silenci

alt text


Mediainfo

Video
ID : 1
Format : AVC
Format/Info : Advanced Video Codec
Format profile : High@L4
Format settings : CABAC / 4 Ref Frames
Format settings, CABAC : Yes
Format settings, Reference : 4 frames
Codec ID : V_MPEG4/ISO/AVC
Duration : 1 h 44 min
Bit rate mode : Constant
Bit rate : 4 000 kb/s
Width : 1 920 pixels
Height : 1 080 pixels
Display aspect ratio : 16:9
Frame rate mode : Constant
Frame rate : 25.000 FPS
Standard : PAL
Color space : YUV
Chroma subsampling : 4:2:0
Bit depth : 8 bits
Scan type : Progressive
Bits/(Pixel*Frame) : 0.077
Stream size : 2.85 GiB (97%)
Title : El detectiu Conan: Quinze minuts de silenci
Default : Yes
Forced : No
Color range : Full
Color primaries : BT.709
Transfer characteristics : BT.709
Matrix coefficients : BT.709

Audio
ID : 2
Format : AAC LC
Format/Info : Advanced Audio Codec Low Complexity
Codec ID : A_AAC-2
Duration : 1 h 44 min
Bit rate : 125 kb/s
Channel(s) : 2 channels
Channel layout : L R
Sampling rate : 48.0 kHz
Frame rate : 46.875 FPS (1024 SPF)
Compression mode : Lossy
Stream size : 93.7 MiB (3%)
Title : Català
Language : Catalan
Default : Yes
Forced : No

Text
ID : 3
Format : UTF-8
Codec ID : S_TEXT/UTF8
Codec ID/Info : UTF-8 Plain Text
Duration : 1 h 44 min
Bit rate : 83 b/s
Count of elements : 1680
Stream size : 63.5 KiB (0%)
Title : Català
Language : Catalan
Default : No
Forced : No


DD per MEGA: 15 El detectiu Conan - Quinze minuts de silenci [WEBDL 1080p] [CAT+SUB] [26A3A33B].mkv

Comments

No user comments have been posted.