El Detectiu Conan - La desaparició d'en Conan Edogawa: Els dos pitjors dies de la història [WEBDL 1080p] [CAT+SUB]


Category: Anime - Non-English-translated
Uploaded by: れんちょん
Website Link: N/A
Hash: 51cce90e135a1ffaca380b40732eda3e1c01ce80
Size: 2.5 GiB
Torrent language: Catalan Catalan
Date: 7/4/2020, 3:56:11 PM UTC+0
Seeders: 2
Leechers: 1
Completed: 5
Last scraped: 8/4/2020, 4:05:41 AM UTC+0
NyaaPantsu Ads

Description

La desaparició d'en Conan Edogawa: Els dos pitjors dies de la història

alt text


Mediainfo

Video
ID : 1
Format : AVC
Format/Info : Advanced Video Codec
Format profile : High@L4
Format settings : CABAC / 4 Ref Frames
Format settings, CABAC : Yes
Format settings, Reference : 4 frames
Codec ID : V_MPEG4/ISO/AVC
Duration : 1 h 28 min
Bit rate mode : Constant
Bit rate : 4 000 kb/s
Width : 1 920 pixels
Height : 1 080 pixels
Display aspect ratio : 16:9
Frame rate mode : Constant
Frame rate : 25.000 FPS
Standard : PAL
Color space : YUV
Chroma subsampling : 4:2:0
Bit depth : 8 bits
Scan type : Progressive
Bits/(Pixel*Frame) : 0.077
Stream size : 2.43 GiB (97%)
Title : La desaparició d'en Conan Edogawa: Els dos pitjors dies de la història
Default : Yes
Forced : No
Color range : Full
Color primaries : BT.709
Transfer characteristics : BT.709
Matrix coefficients : BT.709

Audio
ID : 2
Format : AAC LC
Format/Info : Advanced Audio Codec Low Complexity
Codec ID : A_AAC-2
Duration : 1 h 28 min
Bit rate : 125 kb/s
Channel(s) : 2 channels
Channel layout : L R
Sampling rate : 48.0 kHz
Frame rate : 46.875 FPS (1024 SPF)
Compression mode : Lossy
Stream size : 79.3 MiB (3%)
Title : Català
Language : Catalan
Default : Yes
Forced : No

Text
ID : 3
Format : UTF-8
Codec ID : S_TEXT/UTF8
Codec ID/Info : UTF-8 Plain Text
Duration : 1 h 28 min
Bit rate : 73 b/s
Count of elements : 1308
Stream size : 47.6 KiB (0%)
Title : Català
Language : Catalan
Default : No
Forced : No


DD per MEGA: La desaparició d'en Conan Edogawa - Els dos pitjors dies de la història [WEBDL 1080p] [CAT+SUB] [7A95AB99].mkv

Comments

No user comments have been posted.