Pel·lícula - El detectiu Conan: El malson més negre [WEBDL 1080p] [CAT+SUB]


Category: Anime - Non-English-translated
Uploaded by: れんちょん
Website Link: N/A
Hash: 139BD4AD8795CC0C1AB1CC28C8B98949635671F3
Size: Unknown
Torrent language: Catalan Catalan
Date: 6/27/2020, 7:29:04 PM UTC+0
Seeders: 1
Leechers: 1
Completed: 5
Last scraped: 6/30/2020, 3:15:37 PM UTC+0
NyaaPantsu Ads

Description

El malson més negre

alt text


Mediainfo

Video
ID : 1
Format : AVC
Format/Info : Advanced Video Codec
Format profile : High@L4
Format settings : CABAC / 4 Ref Frames
Format settings, CABAC : Yes
Format settings, Reference : 4 frames
Codec ID : V_MPEG4/ISO/AVC
Duration : 1 h 46 min
Bit rate mode : Constant
Bit rate : 4 000 kb/s
Width : 1 920 pixels
Height : 1 080 pixels
Display aspect ratio : 16:9
Frame rate mode : Constant
Frame rate : 25.000 FPS
Standard : PAL
Color space : YUV
Chroma subsampling : 4:2:0
Bit depth : 8 bits
Scan type : Progressive
Bits/(Pixel*Frame) : 0.077
Stream size : 2.95 GiB (97%)
Title : El detectiu Conan: El malson més negre
Default : Yes
Forced : No
Color range : Full
Color primaries : BT.709
Transfer characteristics : BT.709
Matrix coefficients : BT.709

Audio
ID : 2
Format : AAC LC
Format/Info : Advanced Audio Codec Low Complexity
Codec ID : A_AAC-2
Duration : 1 h 46 min
Bit rate : 125 kb/s
Channel(s) : 2 channels
Channel layout : L R
Sampling rate : 48.0 kHz
Frame rate : 46.875 FPS (1024 SPF)
Compression mode : Lossy
Stream size : 95.5 MiB (3%)
Title : Català
Language : Catalan
Default : Yes
Forced : No

Text
ID : 3
Format : UTF-8
Codec ID : S_TEXT/UTF8
Codec ID/Info : UTF-8 Plain Text
Duration : 1 h 45 min
Bit rate : 91 b/s
Count of elements : 1831
Stream size : 70.6 KiB (0%)
Title : Català
Language : Catalan
Default : No
Forced : No


DD per MEGA: 20 El detectiu Conan - El malson més negre [WEBDL 1080p] [CAT+SUB] [3E06F315].mkv

Comments

No user comments have been posted.