Pel·lícula - El detectiu Conan: Els gira-sols del foc infernal [WEBDL 1080p] [CAT+SUB]


Category: Anime - Non-English-translated
Uploaded by: れんちょん
Website Link: N/A
Hash: f8e492dba0bb7421b0215ed1c93142ff1cc7595f
Size: 3.1 GiB
Torrent language: Catalan Catalan
Date: 6/20/2020, 6:48:00 PM UTC+0
Seeders: 1
Leechers: 1
Completed: 2
Last scraped: 7/8/2020, 5:41:58 AM UTC+0
NyaaPantsu Ads

Description

Els gira-sols del foc infernal

alt text


Mediainfo

Video
ID : 1
Format : AVC
Format/Info : Advanced Video Codec
Format profile : High@L4
Format settings : CABAC / 4 Ref Frames
Format settings, CABAC : Yes
Format settings, Reference : 4 frames
Codec ID : V_MPEG4/ISO/AVC
Duration : 1 h 47 min
Bit rate mode : Constant
Bit rate : 4 000 kb/s
Width : 1 920 pixels
Height : 1 080 pixels
Display aspect ratio : 16:9
Frame rate mode : Constant
Frame rate : 25.000 FPS
Standard : PAL
Color space : YUV
Chroma subsampling : 4:2:0
Bit depth : 8 bits
Scan type : Progressive
Bits/(Pixel*Frame) : 0.077
Stream size : 2.98 GiB (97%)
Title : El detectiu Conan: Els gira-sols del foc infernal
Language : English
Default : Yes
Forced : No
Color range : Full
Color primaries : BT.709
Transfer characteristics : BT.709
Matrix coefficients : BT.709

Audio
ID : 3
Format : AAC LC
Format/Info : Advanced Audio Codec Low Complexity
Codec ID : A_AAC-2
Duration : 1 h 47 min
Bit rate : 125 kb/s
Channel(s) : 2 channels
Channel layout : L R
Sampling rate : 48.0 kHz
Frame rate : 46.875 FPS (1024 SPF)
Compression mode : Lossy
Stream size : 96.5 MiB (3%)
Title : Català
Language : Catalan
Default : Yes
Forced : No

Text
ID : 2
Format : UTF-8
Codec ID : S_TEXT/UTF8
Codec ID/Info : UTF-8 Plain Text
Duration : 1 h 47 min
Bit rate : 101 b/s
Count of elements : 1945
Stream size : 79.7 KiB (0%)
Title : Català
Language : Catalan
Default : No
Forced : No


DD per MEGA: 19 El detectiu Conan - Els gira-sols del foc infernal [WEBDL 1080p] [CAT+SUB] [6FF1CAFE].mkv

Comments

No user comments have been posted.