[anon] Weathering With You (Tenki no Ko) [Anime Time] [obs sucks] [24fps]


Category: Anime - English-translated
Uploaded by: れんちょん
Website Link: N/A
Hash: 4b256fb4e7cc0dca2be7fa821c9700cd04a6e17c
Size: 4.5 GiB
Torrent language: English English
Related to Anidb ID: 14534
Date: 4/27/2020, 3:46:13 PM UTC+0
Seeders: 13
Leechers: 3
Completed: 593
Last scraped: 5/25/2020, 9:41:03 PM UTC+0
NyaaPantsu Ads

Description

Changed the framerate of obs sucks webrip from 25fps to original 24fps (no reencode) and repitched/adjusted audio accordingly.

Added englisch subs from here: https://nyaa.net/view/1030548

Mediainfo:
```
General
Unique ID : 282089678303203654001487498705505829293 (0xD4387EEFAD2284DB88D6D8B4894741AD)
Complete name : [anon] Weathering With You (Tenki no Ko) [Anime Time] [obs sucks] [24fps].mkv
Format : Matroska
Format version : Version 4
File size : 4.54 GiB
Duration : 1 h 52 min
Overall bit rate : 5 796 kb/s
Encoded date : UTC 2020-04-27 13:34:48
Writing application : mkvmerge v45.0.0 ('Heaven in Pennies') 64-bit
Writing library : libebml v1.3.10 + libmatroska v1.5.2 / Lavf58.29.100

Video
ID : 1
Format : AVC
Format/Info : Advanced Video Codec
Format profile : High@L4
Format settings : CABAC / 4 Ref Frames
Format settings, CABAC : Yes
Format settings, ReFrames : 4 frames
Codec ID : V_MPEG4/ISO/AVC
Duration : 1 h 52 min
Bit rate mode : Constant
Bit rate : 5 673 kb/s
Nominal bit rate : 6 000 kb/s
Width : 1 920 pixels
Height : 1 080 pixels
Display aspect ratio : 16:9
Frame rate mode : Constant
Frame rate : 23.976 (24000/1001) FPS
Original frame rate : 25.000 FPS
Standard : PAL
Color space : YUV
Chroma subsampling : 4:2:0
Bit depth : 8 bits
Scan type : Progressive
Bits/(Pixel*Frame) : 0.114
Stream size : 4.45 GiB (98%)
Language : Dutch
Default : Yes
Forced : No
Color range : Limited
Color primaries : BT.709
Transfer characteristics : BT.709
Matrix coefficients : BT.709

Audio
ID : 2
Format : Opus
Codec ID : A_OPUS
Duration : 1 h 52 min
Bit rate : 121 kb/s
Channel(s) : 2 channels
Channel layout : L R
Sampling rate : 48.0 kHz
Frame rate : 50.000 FPS (960 SPF)
Compression mode : Lossy
Stream size : 97.1 MiB (2%)
Writing library : Lavc58.54.100 libopus
Language : Japanese
Default : Yes
Forced : No

Text
ID : 3
Format : ASS
Codec ID : S_TEXT/ASS
Codec ID/Info : Advanced Sub Station Alpha
Duration : 1 h 50 min
Bit rate : 102 b/s
Count of elements : 1628
Compression mode : Lossless
Stream size : 83.1 KiB (0%)
Language : English
Default : Yes
Forced : No
```

Comments

No user comments have been posted.