El detectiu Conan - Pel·lícules 17(El detectiu al mar distant) i 18 (El franctirador dimensional) [WEBDL 720p] [CAT+SUB]


Category: Anime - Non-English-translated
Uploaded by: れんちょん
Website Link: N/A
Hash: 90c6e9a2f6dfb6dccd2932c8eff55158131c1a32
Size: 3.9 GiB
Torrent language: Catalan Catalan
Date: 4/12/2020, 9:18:04 PM UTC+0
Seeders: 1
Leechers: 1
Completed: 5
Last scraped: 5/24/2020, 10:33:00 AM UTC+0
NyaaPantsu Ads

Description

El detectiu al mar distant

(https://images2.imgbox.com/29/65/uiA2nUGR_o.png)

El franctirador dimensional

(https://images2.imgbox.com/89/b1/hzqeUNd3_o.png)

Mediainfo

Video
ID : 1
Format : AVC
Format/Info : Advanced Video Codec
Format profile : Main@L3.1
Format settings : CABAC / 4 Ref Frames
Format settings, CABAC : Yes
Format settings, Reference : 4 frames
Codec ID : V_MPEG4/ISO/AVC
Duration : 1 h 45 min
Bit rate mode : Constant
Bit rate : 2 500 kb/s
Width : 1 280 pixels
Height : 720 pixels
Display aspect ratio : 16:9
Frame rate mode : Constant
Frame rate : 25.000 FPS
Standard : PAL
Color space : YUV
Chroma subsampling : 4:2:0
Bit depth : 8 bits
Scan type : Progressive
Bits/(Pixel*Frame) : 0.109
Stream size : 1.84 GiB (95%)
Title : El detectiu Conan: El detectiu al mar distant
Default : Yes
Forced : No
Color range : Full

Audio
ID : 2
Format : AAC LC
Format/Info : Advanced Audio Codec Low Complexity
Codec ID : A_AAC-2
Duration : 1 h 45 min
Bit rate : 125 kb/s
Channel(s) : 2 channels
Channel layout : L R
Sampling rate : 48.0 kHz
Frame rate : 46.875 FPS (1024 SPF)
Compression mode : Lossy
Stream size : 94.5 MiB (5%)
Title : Català
Default : Yes
Forced : No

Text
ID : 3
Format : UTF-8
Codec ID : S_TEXT/UTF8
Codec ID/Info : UTF-8 Plain Text
Duration : 1 h 44 min
Bit rate : 101 b/s
Count of elements : 1965
Stream size : 77.7 KiB (0%)
Title : Català
Default : No
Forced : No

File Name Size
17 El detectiu Conan - El detectiu al mar distant [WEBDL 720p] [CAT+SUB] [132B5E78].mkv 1.9 GiB
18 El detectiu Conan - El franctirador dimensional [WEBDL 720p] [CAT+SUB] [2C0EBB14].mkv 1.9 GiB

Comments

No user comments have been posted.