NyaaPantsu Ads

Slam Dunk Special 1994 JPN Blu-ray Remux 1080p AVC LPCM 2.0


Category: Anime - Raw
Uploaded by: れんちょん
Website Link: N/A
Hash: f5b27675ed3e6a83182a61bfb8655cc998b10622
Size: 10.8 GiB
Torrent language: Japanese Japanese
Date: 1/21/2020, 7:39:04 PM UTC+0
Seeders: 4
Leechers: 3
Completed: 128
Last scraped: 2/15/2020, 5:55:32 PM UTC+0
NyaaPantsu Ads

Description


 

 

 

 
```
General
Unique ID : 16252858324020826835787319342826522971 (0xC3A2FC87A891F4E829AFCC95964095B)
Complete name : Slam Dunk TV Special.mkv
Format : Matroska
Format version : Version 4
File size : 10.8 GiB
Duration : 47 min 47 s
Overall bit rate mode : Variable
Overall bit rate : 32.4 Mb/s
Encoded date : UTC 2020-01-01 00:00:00
Writing application : mkvmerge v40.0.0 ('Old Town Road + Pony') 64-bit
Writing library : libebml v1.3.9 + libmatroska v1.5.2

Video
ID : 1
Format : AVC
Format/Info : Advanced Video Codec
Format profile : High@L4.1
Format settings : CABAC / 4 Ref Frames
Format settings, CABAC : Yes
Format settings, Reference fra : 4 frames
Codec ID : V_MPEG4/ISO/AVC
Duration : 47 min 47 s
Bit rate mode : Variable
Bit rate : 30.8 Mb/s
Maximum bit rate : 40.0 Mb/s
Width : 1 920 pixels
Height : 1 080 pixels
Display aspect ratio : 16:9
Frame rate mode : Constant
Frame rate : 23.976 (24000/1001) FPS
Color space : YUV
Chroma subsampling : 4:2:0
Bit depth : 8 bits
Scan type : Progressive
Bits/(Pixel*Frame) : 0.620
Stream size : 10.3 GiB (95%)
Default : Yes
Forced : No

Audio
ID : 2
Format : PCM
Format settings : Little / Signed
Codec ID : A_PCM/INT/LIT
Duration : 47 min 47 s
Bit rate mode : Constant
Bit rate : 1 536 kb/s
Channel(s) : 2 channels
Sampling rate : 48.0 kHz
Frame rate : 200.000 FPS (240 SPF)
Bit depth : 16 bits
Stream size : 525 MiB (5%)
Language : Japanese
Default : Yes
Forced : No

Menu
00:00:00.000 : en:Chapter 01
00:01:43.097 : en:Chapter 02
00:03:55.483 : en:Chapter 03
00:09:43.577 : en:Chapter 04
00:20:31.224 : en:Chapter 05
00:34:19.051 : en:Chapter 06
00:45:12.704 : en:Chapter 07
```

Comments

No user comments have been posted.

NyaaPantsu Ads