NyaaPantsu Ads

Slam Dunk The Movie 02 1994 JPN Blu-ray Remux 1080p AVC LPCM 2.0


Category: Anime - Raw
Uploaded by: れんちょん
Website Link: N/A
Hash: 80b04c1af54a490662589f86840c60a2007db134
Size: 12.3 GiB
Torrent language: Japanese Japanese
Date: 1/21/2020, 7:26:36 PM UTC+0
Seeders: 4
Leechers: 5
Completed: 165
Last scraped: 2/18/2020, 6:04:46 PM UTC+0
NyaaPantsu Ads

Description


 

 

 

 

 
```
General
Unique ID : 5057440105216694132451874619624505518 (0x3CE070C78D764CF3E6279415F0BC0AE)
Complete name : lam Dunk The Movie - 02.mkv
Format : Matroska
Format version : Version 4
File size : 12.3 GiB
Duration : 44 min 53 s
Overall bit rate mode : Variable
Overall bit rate : 39.3 Mb/s
Encoded date : UTC 2020-01-01 00:00:00
Writing application : mkvmerge v40.0.0 ('Old Town Road + Pony') 64-bit
Writing library : libebml v1.3.9 + libmatroska v1.5.2

Video
ID : 1
Format : AVC
Format/Info : Advanced Video Codec
Format profile : High@L4.1
Format settings : CABAC / 4 Ref Frames
Format settings, CABAC : Yes
Format settings, Reference fra : 4 frames
Codec ID : V_MPEG4/ISO/AVC
Duration : 44 min 53 s
Bit rate mode : Variable
Bit rate : 37.8 Mb/s
Maximum bit rate : 40.0 Mb/s
Width : 1 920 pixels
Height : 1 080 pixels
Display aspect ratio : 16:9
Frame rate mode : Constant
Frame rate : 23.976 (24000/1001) FPS
Color space : YUV
Chroma subsampling : 4:2:0
Bit depth : 8 bits
Scan type : Progressive
Bits/(Pixel*Frame) : 0.760
Stream size : 11.9 GiB (96%)
Default : Yes
Forced : No

Audio
ID : 2
Format : PCM
Format settings : Little / Signed
Codec ID : A_PCM/INT/LIT
Duration : 44 min 53 s
Bit rate mode : Constant
Bit rate : 1 536 kb/s
Channel(s) : 2 channels
Sampling rate : 48.0 kHz
Frame rate : 200.000 FPS (240 SPF)
Bit depth : 16 bits
Stream size : 493 MiB (4%)
Language : Japanese
Default : Yes
Forced : No

Menu
00:00:00.000 : en:Chapter 01
00:01:57.117 : en:Chapter 02
00:03:23.994 : en:Chapter 03
00:08:20.583 : en:Chapter 04
00:16:05.965 : en:Chapter 05
00:17:52.613 : en:Chapter 06
00:19:02.683 : en:Chapter 07
00:21:26.076 : en:Chapter 08
00:24:38.727 : en:Chapter 09
00:32:24.567 : en:Chapter 10
00:34:26.939 : en:Chapter 11
00:38:32.310 : en:Chapter 12
00:42:13.322 : en:Chapter 13
```

Comments

No user comments have been posted.

NyaaPantsu Ads