NyaaPantsu Ads

Slam Dunk The Movie 03 1995 JPN Blu-ray Remux 1080p AVC LPCM 2.0


Category: Anime - Raw
Uploaded by: れんちょん
Website Link: N/A
Hash: 84bc7a0b74934d85d23085f2be5ae1a0ee5df606
Size: 10.0 GiB
Torrent language: Japanese Japanese
Date: 1/21/2020, 7:19:42 PM UTC+0
Seeders: 4
Leechers: 4
Completed: 158
Last scraped: 2/21/2020, 11:05:01 AM UTC+0
NyaaPantsu Ads

Description


 

 

 

 
```
General
Unique ID : 202977066033314647333806411048063877787 (0x98B3F600CD658EA7FC79F6D9A440429B)
Complete name : Slam Dunk The Movie - 03.mkv
Format : Matroska
Format version : Version 4
File size : 10.0 GiB
Duration : 39 min 33 s
Overall bit rate mode : Variable
Overall bit rate : 36.3 Mb/s
Encoded date : UTC 2020-01-01 00:00:00
Writing application : mkvmerge v40.0.0 ('Old Town Road + Pony') 64-bit
Writing library : libebml v1.3.9 + libmatroska v1.5.2

Video
ID : 1
Format : AVC
Format/Info : Advanced Video Codec
Format profile : High@L4.1
Format settings : CABAC / 4 Ref Frames
Format settings, CABAC : Yes
Format settings, Reference fra : 4 frames
Codec ID : V_MPEG4/ISO/AVC
Duration : 39 min 33 s
Bit rate mode : Variable
Bit rate : 34.8 Mb/s
Maximum bit rate : 40.0 Mb/s
Width : 1 920 pixels
Height : 1 080 pixels
Display aspect ratio : 16:9
Frame rate mode : Constant
Frame rate : 23.976 (24000/1001) FPS
Color space : YUV
Chroma subsampling : 4:2:0
Bit depth : 8 bits
Scan type : Progressive
Bits/(Pixel*Frame) : 0.699
Stream size : 9.60 GiB (96%)
Default : Yes
Forced : No

Audio
ID : 2
Format : PCM
Format settings : Little / Signed
Codec ID : A_PCM/INT/LIT
Duration : 39 min 33 s
Bit rate mode : Constant
Bit rate : 1 536 kb/s
Channel(s) : 2 channels
Sampling rate : 48.0 kHz
Frame rate : 200.000 FPS (240 SPF)
Bit depth : 16 bits
Stream size : 435 MiB (4%)
Language : Japanese
Default : Yes
Forced : No

Menu
00:00:00.000 : en:Chapter 01
00:00:48.714 : en:Chapter 02
00:02:06.246 : en:Chapter 03
00:06:16.709 : en:Chapter 04
00:08:42.647 : en:Chapter 05
00:16:13.931 : en:Chapter 06
00:21:15.440 : en:Chapter 07
00:23:44.548 : en:Chapter 08
00:25:25.732 : en:Chapter 09
00:27:34.986 : en:Chapter 10
00:33:08.319 : en:Chapter 11
00:35:16.405 : en:Chapter 12
00:37:16.484 : en:Chapter 13
```

Comments

No user comments have been posted.

NyaaPantsu Ads