NyaaPantsu Ads

Slam Dunk The Movie 04 1995 JPN Blu-ray Remux 1080p AVC LPCM 2.0


Category: Anime - Raw
Uploaded by: れんちょん
Website Link: N/A
Hash: 1d179c87fda83fef1ec1b77da361d787e5f932b4
Size: 10.1 GiB
Torrent language: Japanese Japanese
Date: 1/21/2020, 7:11:15 PM UTC+0
Seeders: 5
Leechers: 4
Completed: 157
Last scraped: 2/16/2020, 0:03:41 AM UTC+0
NyaaPantsu Ads

Description


 

 

 

 

 
```
General
Unique ID : 112251443928874254717943955736725270977 (0x5472D77AB8B80BA7906DC877E307B1C1)
Complete name : Slam Dunk The Movie - 04.mkv
Format : Matroska
Format version : Version 4
File size : 10.1 GiB
Duration : 39 min 56 s
Overall bit rate mode : Variable
Overall bit rate : 36.3 Mb/s
Encoded date : UTC 2020-01-01 00:00:00
Writing application : mkvmerge v40.0.0 ('Old Town Road + Pony') 64-bit
Writing library : libebml v1.3.9 + libmatroska v1.5.2

Video
ID : 1
Format : AVC
Format/Info : Advanced Video Codec
Format profile : High@L4.1
Format settings : CABAC / 4 Ref Frames
Format settings, CABAC : Yes
Format settings, Reference fra : 4 frames
Codec ID : V_MPEG4/ISO/AVC
Duration : 39 min 56 s
Bit rate mode : Variable
Bit rate : 34.8 Mb/s
Maximum bit rate : 40.0 Mb/s
Width : 1 920 pixels
Height : 1 080 pixels
Display aspect ratio : 16:9
Frame rate mode : Constant
Frame rate : 23.976 (24000/1001) FPS
Color space : YUV
Chroma subsampling : 4:2:0
Bit depth : 8 bits
Scan type : Progressive
Bits/(Pixel*Frame) : 0.700
Stream size : 9.71 GiB (96%)
Default : Yes
Forced : No

Audio
ID : 2
Format : PCM
Format settings : Little / Signed
Codec ID : A_PCM/INT/LIT
Duration : 39 min 56 s
Bit rate mode : Constant
Bit rate : 1 536 kb/s
Channel(s) : 2 channels
Sampling rate : 48.0 kHz
Frame rate : 200.000 FPS (240 SPF)
Bit depth : 16 bits
Stream size : 439 MiB (4%)
Language : Japanese
Default : Yes
Forced : No

Menu
00:00:00.000 : en:Chapter 01
00:01:19.996 : en:Chapter 02
00:03:54.400 : en:Chapter 03
00:06:53.746 : en:Chapter 04
00:08:00.480 : en:Chapter 05
00:13:49.411 : en:Chapter 06
00:21:05.347 : en:Chapter 07
00:24:07.404 : en:Chapter 08
00:27:05.582 : en:Chapter 09
00:32:34.285 : en:Chapter 10
00:36:24.807 : en:Chapter 11
00:37:04.680 : en:Chapter 12
```

Comments

No user comments have been posted.

NyaaPantsu Ads